Composer pro 1.7.1.290 full cd

Editors' review

November 19, 2016

Download Composer pro 1.7.1.290 full cd


Exact Audio Copy V0.99 prebeta 4 from 23. January 2008

EAC extraction logfile from 8. August 2008, 16:57

Various / The Harder They Come (Deluxe Edition Disc 2)

Used drive : LITE-ON DVDRW LDW-811S Adapter: 2 ID: 0

Read mode : Secure
Utilize accurate stream : Yes
Defeat audio cache : Yes
Make use of C2 pointers : No

Read offset correction : 12
Overread into Lead-In and Lead-Out : No
Fill up missing offset samples with silence : Yes
Delete leading and trailing silent blocks : No
Null samples used in CRC calculations : No
Used interface : Native Win32 interface for Win NT & 2000
Gap handling : Not detected, thus appended to previous track

Used output format : User Defined Encoder
Selected bitrate : 768 kBit/s
Quality : High
Add ID3 tag : No
Command line compressor : C:\Program Files\Exact Audio Copy\FLAC\FLAC.EXE
Additional command line options : -6 -V -T "ARTIST=%a" -T "TITLE=%t" -T "ALBUM=%g" -T "DATE=%y" -T "TRACKNUMBER=%n" -T "GENRE=%m" -T "COMMENT=%e" %s -o %d

TOC of the extracted CD

Track | Start | Length | Start sector | End sector
---------------------------------------------------------
1 | 0:00.00 | 2:37.70 | 0 | 11844
2 | 2:37.70 | 2:40.42 | 11845 | 23886
3 | 5:18.37 | 3:18.05 | 23887 | 38741
4 | 8:36.42 | 4:52.45 | 38742 | 60686
5 | 13:29.12 | 2:42.50 | 60687 | 72886
6 | 16:11.62 | 2:23.65 | 72887 | 83676
7 | 18:35.52 | 2:49.50 | 83677 | 96401
8 | 21:25.27 | 2:31.60 | 96402 | 107786
9 | 23:57.12 | 3:42.55 | 107787 | 124491
10 | 27:39.67 | 3:04.68 | 124492 | 138359
11 | 30:44.60 | 3:01.30 | 138360 | 151964
12 | 33:46.15 | 2:45.15 | 151965 | 164354
13 | 36:31.30 | 2:58.07 | 164355 | 177711
14 | 39:29.37 | 3:13.60 | 177712 | 192246
15 | 42:43.22 | 3:15.50 | 192247 | 206921
16 | 45:58.72 | 4:27.18 | 206922 | 226964
17 | 50:26.15 | 3:15.32 | 226965 | 241621
18 | 53:41.47 | 3:11.43 | 241622 | 255989

Track 1

Filename C:\Documents and Settings\Owner\My Documents\Jimmy Cliff and VA - The Harder They Come\Disc 2\01 - Israelites.wav

Peak level 88.1 %
Track quality 100.0 %
Test CRC 14110CE2
Copy CRC 14110CE2
Copy OK

Track 2

Filename C:\Documents and Settings\Owner\My Documents\Jimmy Cliff and VA - The Harder They Come\Disc 2\02 - My Conversation.wav

Peak level 85.1 %
Track quality 100.0 %
Test CRC 2D417872
Copy CRC 2D417872
Copy OK

Track 3

Filename C:\Documents and Settings\Owner\My Documents\Jimmy Cliff and VA - The Harder They Come\Disc 2\03 - Do The Reggay.wav

Peak level 98.8 %
Track quality 100.0 %
Test CRC 9232AC0C
Copy CRC 9232AC0C
Copy OK

Track 4

Filename C:\Documents and Settings\Owner\My Documents\Jimmy Cliff and VA - The Harder They Come\Disc 2\04 - Viet Nam.wav

Peak level 75.8 %
Track quality 100.0 %
Test CRC 370BBB17
Copy CRC 370BBB17
Copy OK

Track 5

Filename C:\Documents and Settings\Owner\My Documents\Jimmy Cliff and VA - The Harder They Come\Disc 2\05 - I Can See Clearly Now.wav

Peak level 96.6 %
Track quality 100.0 %
Test CRC B5AC6724
Copy CRC B5AC6724
Copy OK

Track 6

Filename C:\Documents and Settings\Owner\My Documents\Jimmy Cliff and VA - The Harder They Come\Disc 2\06 - Reggae Hit The Town.wav

Peak level 96.6 %
Track quality 100.0 %
Test CRC 303413D7
Copy CRC 303413D7
Copy OK

Track 7

Filename C:\Documents and Settings\Owner\My Documents\Jimmy Cliff and VA - The Harder They Come\Disc 2\07 - Double Barrel.wav

Peak level 90.1 %
Track quality 99.9 %
Test CRC 9DEC5811
Copy CRC 9DEC5811
Copy OK

Track 8

Filename C:\Documents and Settings\Owner\My Documents\Jimmy Cliff and VA - The Harder They Come\Disc 2\08 - It Mek.wav

Peak level 96.6 %
Track quality 100.0 %
Test CRC F554D2FD
Copy CRC F554D2FD
Copy OK

Track 9

Filename C:\Documents and Settings\Owner\My Documents\Jimmy Cliff and VA - The Harder They Come\Disc 2\09 - Sweet Sensation.wav

Peak level 96.6 %
Track quality 100.0 %
Test CRC 9B11CCFD
Copy CRC 9B11CCFD
Copy OK

Track 10

Filename C:\Documents and Settings\Owner\My Documents\Jimmy Cliff and VA - The Harder They Come\Disc 2\10 - Let Your Yeah Be Yeah.wav

Peak level 90.1 %
Track quality 100.0 %
Test CRC E8DBF786
Copy CRC E8DBF786
Copy OK

Track 11

Filename C:\Documents and Settings\Owner\My Documents\Jimmy Cliff and VA - The Harder They Come\Disc 2\11 - Cherry Oh Baby.wav

Peak level 98.8 %
Track quality 100.0 %
Test CRC 6E830612
Copy CRC 6E830612
Copy OK

Track 12

Filename C:\Documents and Settings\Owner\My Documents\Jimmy Cliff and VA - The Harder They Come\Disc 2\12 - Monkey Spanner.wav

Peak level 97.7 %
Track quality 100.0 %
Test CRC BEF52BAA
Copy CRC BEF52BAA
Copy OK

Track 13

Filename C:\Documents and Settings\Owner\My Documents\Jimmy Cliff and VA - The Harder They Come\Disc 2\13 - 54-46 (That's My Number).wav

Peak level 93.3 %
Track quality 100.0 %
Test CRC DD15ACD7
Copy CRC DD15ACD7
Copy OK

Track 14

Filename C:\Documents and Settings\Owner\My Documents\Jimmy Cliff and VA - The Harder They Come\Disc 2\14 - It's My Delight.wav

Peak level 95.5 %
Track quality 100.0 %
Test CRC E07CF616
Copy CRC E07CF616
Copy OK

Track 15

Filename C:\Documents and Settings\Owner\My Documents\Jimmy Cliff and VA - The Harder They Come\Disc 2\15 - Wonderful World, Beautiful People.wav

Peak level 71.6 %
Track quality 100.0 %
Test CRC 3A9D2525
Copy CRC 3A9D2525
Copy OK

Track 16

Filename C:\Documents and Settings\Owner\My Documents\Jimmy Cliff and VA - The Harder They Come\Disc 2\16 - Pomp & Pride.wav

Peak level 88.1 %
Track quality 100.0 %
Test CRC CE46845B
Copy CRC CE46845B
Copy OK

Track 17

Filename C:\Documents and Settings\Owner\My Documents\Jimmy Cliff and VA - The Harder They Come\Disc 2\17 - Guava Jelly.wav

Peak level 95.5 %
Track quality 100.0 %
Test CRC 40DFC327
Copy CRC 40DFC327
Copy OK

Track 18

Filename C:\Documents and Settings\Owner\My Documents\Jimmy Cliff and VA - The Harder They Come\Disc 2\18 - The Bigger They Come, The Harder They Fall.wav

Peak level 95.5 %
Track quality 99.8 %
Test CRC 2D309E7E
Copy CRC 2D309E7E
Copy finished

No errors occurred

End of status report